Linkin Park In The End M4a

m4a 02 One Step Closer. This is the Linkin Park band's sophomore album with 4 singles all topping the charts. 52 Linkin Park – Waiting For The End. Collection Audio Mp3, M4a, Flac, Wav (Music Orginal) Posted on Desember 11, 2016. Jung Youth & Fleurie) - In the End (Linkin Park Cover) Verse-1: It starts with one One thing, I don't know why It doesn't even matter how hard you try Keep that in mind I designed this rhyme to explain in due time All I know Time is a valuable thing Watch it fly by as the pendulum swings. На этой странице вы можете скачать песню Хиты 2018 - Tommee Profitt - In The End бесплатно в mp3 на телефон или планшет. mp3 Linkin Park - Numb. mp3 Linkin Park - In The End (Techno Remix). [ DOWNLOAD MP3 ] Linkin Park - Burn It Down. Queen — We Will Rock You 269. Linkin Park - Faint (remix). m4a 08 In the End. zip 01 Chasing Cars. mp3 3 MB 02 - Linkin Park - In the End (Version Piano). Linkin Park "Songs From the Underground EP" Reviewed in the United States on. LINKIN PARK - One More Light Live (iTunes Plus AAC M4A) (Album) Search. 01 Papercut. Linkin Park) - We Made It. June 16 2018. 33KB Linkin Park - In The End (Music Video Lyrics) (Mellen Gi & Tommee Profitt Remix). Descagar Bajar Música Gratis iTunes Plus AAC M4A Download Music Free Concert, HD 720p, Linkin Park, Music Videos, TV Waiting For The End 17 – Final. (Pretty Young Thing). Download flac jay-z - the hits collection, vol1 2010 lossless cd, m4a 320 kbps: media: cd: size: 557. Lies Greed Misery 05. After downloading them with this reliable converter, you can enjoy Spotify music on all devices you like. m4a 15 Papercut (Recorded Live At BBC1). mpg LINKIN PARK's Guilty All the Same (Nerdist News). Stream Linkin Park (mellen Gi & tommee profitt remix) audio on your desktop or mobile device. Britney supported Femme Fatale with an international tour that ran until the end of 2011; at the end of the year, the home video Live: The Femme Fatale Tour was released. Carpenters — We've Only Just Begun 270. 52 Linkin Park – Waiting For The End. Taylor Swift Accoustic (320kbps) 01 Back To December (Acoustic Version) Linkin Park 08. Linkin Park - One More Light (Live) - 320kbps [Uptobox] Tracklist: 01. mp3 Linkin Park. wma; Should I. mp3 Linkin Park - Numb. Linkin Park - Broken Foot (Meteora Demo) [02:43. The Video Blender: A Capsule of Memes and Videos 2010s. │ │ 01 Waiting for the End. Eminem, 2Pac, Nas - In The End (Linkin Park, Melle. Rolling In the Deep (Live) (Adele cover) 4. Tracklist: Talking to Myself (One More Light Live) Burn It Down (One More Light Live) [Explicit] Battle Symphony (One More Light Live) New Divide (One More Light Live) Invisible (One More Light Live) Nobody Can Save Me (One More Light Live). Cifra Imprimir Corrigir. Bajar mp3 de las mejores canciones de Linnin Park New Divide 2019, exclusivos para ti, puedes escuhar musica online y descargar mp3 sin límites. Composição: Linkin Park · Esse não é o compositor? Nos avise. 2018 Linkin Park - In The End (Mellen Gi & Tommee Profitt Remix) indir, 2018 Linkin Park - In The End (Mellen Gi & Tommee Profitt Remix) Mp3 indir,2018 Linkin Park - In The End (Mellen Gi & Tommee Profitt Remix) mp3 dinle. │ └── Lindsey_Stirling-Transcendence. The “King of the Rockies” was born. Wisdom, Justice, and Love 12. mp3 3 MB 02 - Linkin Park - In the End (Version Piano). 1 KB Extended Plays/2002 - In the End (Live & Rare)/cover. SUPER OFFERTA PRE-NATALIZIA IL MEGLIO DELL'IPTV ITALIANA E' TORNATA CON UNA SUPER OFFERTA. Burn It Down (live) 03. Linkin Park - Bang Three (What I've Done Original Demo) [03:29] 07. Taylor Swift Accoustic (320kbps) 01 Back To December (Acoustic Version) Linkin Park 08. Formed in 1996, the band rose to international fame with their debut album Hybrid Theory (2000), which was certified Diamond by the RIAA in 2005, and multi-Platinum in several other countries. m4a 58 Glee Cast – P. m4a 12 Pushing Me Away. LINKIN PARK – One More Light [iTunes Plus AAC M4A] Genres: Alternative Released: 19 May 2017 ℗ 2017 Warner Bros. LINKIN PARK ? Disografia iTunes Plus AAC M4A 1997-2017 + Demos 1997 (. 4 Empty Spaces. 5 Mbps Width : 3 840 pixels Height : 2 160 pixels Display aspect ratio : 16:9 Frame rate : 50. [Verse 1: Mike Shinoda] Watching the wings cut through the clouds Watching the raindrops blinking red and white Thinking of you When you're older you'll go 'wow, I'm sure glad that my dad is in Linkin Park. Preview, buy and download high-quality MP3 downloads of Hybrid Theory by Linkin Park from zdigital Australia - We have over 19 million high quality tracks in our store. The White Stripes - Under Great White Northern Lights (Live) http://tinyurl. m4a 11 Cure for the Itch. It can help you convert the songs, playlists, albums in Spotify to DRM-free MP3, M4V, WAV, FLAC. M4A 32kbps 1001. m4a 08 In the End. Linkin Park Searches for any track with "Linkin Park" in its artist, title, and album fields. Atlanta, GA based rock band ERIS has released the official music video for their cover of the LINKIN PARK hit single, “Lost in the Echo. Download bai hat Linkin Park - In The End do ca si Tommee Profitt Mellen Gi Remix Fleurie Cover the hien. I think, i have to listen 6,7 times to get into the other Songs, but guys. mp3 3 MB 02 - Linkin Park - In the End (Version Piano). Atlanta, GA based rock band ERIS has released the official music video for their cover of the LINKIN PARK hit single, "Lost in the Echo. m4a │ ├─The Catalyst - EP │ 01 The Catalyst. Artist: Linkin Park Album: A Thousand Suns Live Around the World Released: 2012 Style: Alt Rock Format: M4A 284Kbps Size: 81 Mb. Cali Swag District - The Kickback (Album) [iTunes Plus AAC M4A] Various Artists - Radio 1's Live Lounge, Vol. Linkin Park - In The End (Mellen Gi & Tommee Profitt Remix) size:5. With You 4. Composição: Linkin Park · Esse não é o compositor? Nos avise. 50MB Demi Lovato - Sorry Not Sorry (Official Music Video) _ REACTION__AAC_128k. Descarga Descargar Mp3 In The End Linkin Park en alta calidad (HD), lo nuevo de sus canciones, remixes, acusticos, acapelas y los videos que estan de moda este presente 2018, bajar canciones de In The End Linkin Park en los diferentes formatos de audio y video disponibles; MP3, ACC, M4A, MP4. Descargar Mp3 Linkin Park en alta calidad (HD), lo nuevo de sus canciones, remixes, acusticos, acapelas y los videos que estan de moda este presente 2020, bajar canciones de Linkin Park en los diferentes formatos de audio y video disponibles; MP3, ACC, M4A, MP4. Также слушайте песню на Android, iPhone и iPad. In The End By Linkinpark Mp3 Download, In The End (Official Video) - Linkin Park, In The End - Linkin Park, 4. 2; Linkin Park - iTunes Festival: London 2011 - EP. m4a 04 Points of Authority. 8 Waiting For the End. They range in quality and exposition. It was also the most-played song in the band's live performances. 1 KB Extended Plays/2002 - In the End (Live & Rare)/cover. wma; Crosby Stills_ Nash_ and Young - Chicago; 01 I_m Gonna Be _500 Miles_. Print and download in PDF or MIDI In the End. (Pretty Young Thing). 0 % Качество трека 100. Tải nhạc dạng mp3, m4a, lossless và xem lời bài hát In The End hoàn toàn miễn phí. High-quality Music Downloads. │ │ 01 Waiting for the End. In Pieces from the album Minutes to Midnight - the third studio album by American band Linkin Park, released on May 14, 2007, through Warner Bros. The soundtrack from Transformers: The Last Knight (Transformers 5), a 2017 Movie, tracklist, listen to all the 6 full soundtrack songs, play 34 OST music & trailer tracks. This is the Linkin Park band's sophomore album with 4 singles all topping the charts. Linkin Park - In The End. Follow this steps: 1. Waiting For The End - Linkin Park; The Catalyst - Linkin Park; Linkin Park - New Divide (GreatestHits)m4a; Wolf Alice - Silk (extended T2 Trainspotting trailer. Linkin Park - Éxitos de Colección [2017][MEGA][320Kbps] 01 Numb ft Jay Z 02 In The End 03 We Made It (feat. Playing next. [Mp3 320K] [M4A 288K] [FLAC] Linkin Park : Recharged Linkin Park: Recharged Incluye: 1 A Light That Never Comes 3:50 2 Castle Of Glass (M. Tracklist: 01 – The Requiem (Live from London, 2010) 02 – Burning in the Skies (Live from Hamburg, 2011) 03 – When They Come for Me (Live from Paris, 2010) 04 – Jornada Del Muerto (Live from Hamburg, 2011). Linkin Park – Broken Foot (Meteora Demo) [02:43. m4a 03 With You. jpg 93 KB Albums/09 - A Thousand Suns Plus - Live In Madrid (2011. Loading… Linkin Park - Hybrid Theory [2000]. m4a 58 Glee Cast – P. The Video Blender: A Capsule of Memes and Videos 2010s. Format: DVDRip, AVI, XviD, M4A Video: XVID 640x352 25. m4a (MEGA) If you like this song, please support the artist by buying their original album / music in iTunes Store. This song/group is highly recommended, and I grew up listening to 70's and 80's music. mp3 Linkin Park - Numb. Meteora is the second studio album by American rock band Linkin Park. In The End (Official Video) - Linkin Park__AAC_128k. 5 When They Come For Me. Sorry for Now Lyrics. In The End - Linkin Park 026. 17 Albums, 187 Songs Linkin Park is an American alternative rock band. Linkin Park - Burn It Down [iTunesRip] Free Full MP3 320kbps. Jason Scott Archivist. numb百度云,最好的mv版本-linkin. Te recomendamos que escuches esta musica: 06 linkin park p5hng me awy mike shinoda feat támbien puedes Descargar musica mp3 gratis, y si aún no sabes como bajar musica mp3 puedes ver las indicaciones en la parte inferior de. Tracklist: 01 - The Requiem (Live from London, 2010) 02 - Burning in the Skies (Live from Hamburg, 2011). mpg LINKIN PARK's Guilty All the Same (Nerdist News). Papercut 2. Green Day — Wake Me Up When September Ends 265. LINKIN PARK – One More Light Live m4a. After a few minutes processing it, you can download your karaoke. m4a 58 Glee Cast – P. The Messenger CD06 – Living Things 01. Jay z) - 99 problems - linkin park представленная на данной странице песня linkin park. 0 Hindi + DD 5. [ DOWNLOAD MP3 ] Linkin Park - Burn It Down. Файл Linkin Park - The Hunting Party - ℗ 2014. Waiting for the End (Live) 3. Wait a few minutes while we process it. Linkin Park - Minutes to Midnight - Piano Instrumentals - Avant. Rap Quality: 320 kbps Format: Mp3 Total Time: 00:38:12 Size: 87. Good Morning Good Morning (Take 1 - Instrumental, Breakdown) 18. m4a 54 Flo Rida – Who Dat Girl Feat Akon. Queen — We Are the Champions 266. Legendado por Bruno, Leticia e mais 3. About In the End "In the End" is a song by American rock band Linkin Park. m4a │ ├─Waiting for the End - EP │ 01 Waiting for the End. m4a Uploaded 1 year ago: 3. mp3 Linkin Park - High Voltage. mp3 3 MB 02 - Linkin Park - In the End (Version Piano). Descarga Descargar Mp3 In The End Linkin Park en alta calidad (HD), lo nuevo de sus canciones, remixes, acusticos, acapelas y los videos que estan de moda este presente 2018, bajar canciones de In The End Linkin Park en los diferentes formatos de audio y video disponibles; MP3, ACC, M4A, MP4. Te recomendamos que escuches esta musica: Linnin Park New Divide támbien puedes Descargar musica mp3 gratis, y si aún no sabes como bajar musica mp3 puedes ver las indicaciones en la parte inferior de esta página de mp3. 13MB - duration:03:39. Search for and download any torrent from the pirate bay using search query linkin park. Pepper's Lonely Hearts Club Band (Take 9 And Speech) 17. Listen to Linkin Park (mellen Gi & tommee profitt remix) | Uptona is a platform that you can download and share your music 0 Likes - 355 Plays. m4a 05 Crawling. The Catalyst 15. m4a; Shakira - Whenever_ Wherever _Suerte-English_ Pocket full of sunshine. Linkin Park, melalui Mike Shinoda dan Joseph Hahn, juga sempat bekerja sama dengan band The X-ecutioners dalam pembuatan singel It's Goin' Down. Te recomendamos que escuches esta musica: Tommee Profitt In The End Ft Fleurie Mellen Gi támbien puedes Descargar musica mp3 gratis, y si aún no sabes como bajar musica mp3 puedes ver. Stream Linkin Park (mellen Gi & tommee profitt remix) audio on your desktop or mobile device. Linkin Park - In The End (iTunes Festival Live - London - 2011)( HQ ) MP3 to M4A on Itunes. m4a 58 Glee Cast – P. 05 USD PER TRACK] Previously on NewAlbumReleases. Britney supported Femme Fatale with an international tour that ran until the end of 2011; at the end of the year, the home video Live: The Femme Fatale Tour was released. Linkin Park/A Thousand Suns (Deluxe Version) iTunes LP. m4a 08 In the End. mp3 Linkin Park - Pushing Me Away. Linkin Park - In The End (Mellen Gi & Tommee P. Linkin Park - In The End 3; The End - The Doors 4; The End 5; The End - Neil Cicierega 6; The End Gta 5 Roleplay 7; The End - Goodbye Fortnite 8; The End Of The M4A y ACC. You Make Me Wanna… [My Way]05. Linkin Park - In The End. Play download. Top Música Latina: Por Primera. zip 01 Crack the Shutters. If you have never heard of any of Linkin Park songs you are missing out. 33KB Linkin Park - In The End (Music Video Lyrics) (Mellen Gi & Tommee Profitt Remix). mp3 Linkin Park - Points of Authority. flac Mando Diao - Give Me Fire. Awkwafina raps Linkin Park's hit "In the End," with a little help from Chester Bennington himself. Numb (Live at Live 8, Benjamin Franklin Parkway, Philadelphia, 2nd July 2005) - LINKIN PARK & JAY-Z 55. They range in quality and exposition. 5 When They Come For Me. Artist: Linkin Park Album: Hybrid Theory Year: 2000 Genre: Alt. SUPER OFFERTA PRE-NATALIZIA IL MEGLIO DELL'IPTV ITALIANA E' TORNATA CON UNA SUPER OFFERTA. Linkin park good goodbye lyrics deutsch. Linkin Park - One More Light (2017)/01. Google Drive. / Linkin Park / Live in Texas. Usher iTunes MUSiC discography,Music Video List:01. m4a; 01 For Boston. 2000年,MPEG-4标准出台,AAC重新集成了其特性,加入了SBR技术和PS技术,为区别于传统的MPEG-2 AAC,故含有SBR或PS特性的AAC又称为MPEG-4 AAC. Kate Winslet — What If 271. High-quality Music Downloads 09/05/2012. m4a ├── Linkin_Park │ └── Minutes_To_Midnight │ └── Linkin_Park_-_No_More_Sorrow. Fallout 14. How to Download Linkin Park Albums to MP3. 5 / 5 , 1 vote. ** ::Cover:: ** ! ! ** ::General:: Complete name :** **_Linkin Park - iTunes Festival London 2011 M4A NimitMak SilverRG_** ** Format :** **_MPEG-4_** ** Format Linkin. Fue creado por el vocalista Chester Be. Mellen Gi - NIA (Original Mix) Billie Eilish - everything i wanted. Limp Bizkit - Take A Look Around. Shinoda Remix) 6:20 3 Lost. Linkin Park - One More Light (Live) - 320kbps [Uptobox] Tracklist: 01. LINKIN PARK - One More Light Live - Album (2017) [iTunes Plus AAC M4A] iTunes Plus AAC M4A 21. 17 Albums, 187 Songs Linkin Park is an American alternative rock band. Pepper's Lonely Hearts Club Band (Take 1 - Instrumental) 16. 36 MB) song and listen to In The End Mp3 Download Convert popular song on Miquel Bantulà. Linkin Park - Éxitos de Colección [2017][MEGA][320Kbps] 01 Numb ft Jay Z 02 In The End 03 We Made It (feat. Über 80% neue Produkte zum Festpreis; Das ist das neue eBay. Linkin Park - In The End (Mellen Gi & Tommee P. In The End (Official Video) - Linkin Park__AAC_128k. Directed by Drew Stauffer and Jerry O'Flaherty. Linkin Park 11. Linkin Park / Japanese Discography Genre: Alternative Rock / Country: pic / year: 2001-2014 Media: 17’CD | Audio codec: ALAC (*. Linkin Park is an American rock band from Agoura Hills, California. Linkin Park. 7 Jornada del Muerto. m4a 54 Flo Rida – Who Dat Girl Feat Akon. [ DOWNLOAD MP3 ] Linkin Park - Burn It Down. Eminem, 2Pac, Nas - In The End (Linkin Park, Melle. Linkin Park - Robot Boy (Test Mix, Optional Vocal Take) [04:31] 08. Burn It Down (live) 03. estos te servirán para que guardes tus canciones en el formato de audio correcto despues de aver realizado una descarga de mp3 gratis. Papercut (Live. │ └── Lindsey_Stirling-Transcendence. In the End (Live at Live 8, Benjamin Franklin Parkway, Philadelphia, 2nd July 2005) - LINKIN PARK 54. Powerless Linkin Park. m4a │ 02 The Catalyst (_Bobby Bloomfield_. Tinfoil 12. The Video Blender: A Capsule of Memes and Videos 2010s. 1 KB Extended Plays/2002 - In the End (Live & Rare)/cover. In The End (Official Video) - Linkin Park__AAC_128k. eu, skytorrents. ROADS UNTRAVELED (Rad Omen Remix) [feat. m4a 03 With You. Downloads dang mp3, m4a, lossless va xem lyrics bai Linkin Park - In The End hoan toan mien phi. bạn nên chọn Link Download 3, là định dạng âm thanh M4A với chất lượng gần 500kbps có dung lượng lớn hơn nhưng nghe hay và chi tiết hơn định dạng MP3 320kbps. This is the debut yet the best album of Linkin Park band. wav Длина предзазора 0:00:02. mp3 Linkin Park - Faint. Artist: Linkin Park Album: A Thousand Suns Live Around the World Released: 2012 Style: Alt Rock Format: M4A 284Kbps Size: 81 Mb. Linkin Park - In The End (Mellen Gi & Tommee Profitt Remix) 0. Battle Symphony. Descarga Descargar Mp3 Linkin Park. Alien Ant Farm - Smooth Criminal. Burn It Down (live) 03. Linkin Park - Greatest Hits [MP3~320Kbps] The End of Day (2009)(320kbps) Young Thug - No, My Name is JEFFERY (2016) [M4a~iTunes] Temple Of The Dog Deluxe. Iridescent (Live) 2. 46MB Ace of Base - Don't Turn Around (Official Music Video)__AAC_128k (1). mp3 Linkin Park - In The End vs Crawling (slick remix). The Comedy Jam airs Wednesdays at 10/9c on Comedy Central. r/LinkinPark: A subreddit for Linkin Park music, news, and discussion Press J to jump to the feed. 0 % CRC теста 03476CA4 CRC копии 03476CA4 Точное извлечение (достоверность 6) [120431F0]. Super Duper Love (Live at Live 8, Hyde Park, London, 2nd July 2005) - Joss Stone 56. Linkin Park Album. Como convertir m4a mp3, conversion m4a mp3, convertir m4a mp3 en ligne, convertir m4a mp3 gratuit, convertir m4a en mp3, convertir m4a en wa. Limp Bizkit - Take A Look Around. In The End (Official Video) - Linkin Park__AAC_128k. After a few minutes processing it, you can download your karaoke. [email protected] Codec ID : 36 Duration : 1h 37mn Bit rate : 29. 3 Burning In the Skies. Jay Z & Linkin Park - Numb Encore (Acapella Radio Edit) Jay Z ft Alicia Keys - Empire State Of Mind (Studio Acapella) Jay Z ft Amil & Memphis Bleek - Hey Papi (Acapella) Jay Z ft Mary J Blige - Can't Knock The Hustle (Acapella) Jay Z ft Mya - Best Of Me (Acapella) Jay Z ft Rihanna & Kanye West - Run This Town (Clean Acapella). Blade Runner 2049 (2017) 1080p 10bit Bluray x265 HEVC [DTH DD 2. Bajar mp3 de las mejores canciones de Linnin Park New Divide 2019, exclusivos para ti, puedes escuhar musica online y descargar mp3 sin límites. m4a │ │ │ └─We Made It - Single │ Busta Rhymes (feat. 2 The Radiance. Downloads dang mp3, m4a, lossless va xem lyrics bai Linkin Park - In The End hoan toan mien phi. Ici, nous vous fournissons la sonnerie La Même - Maître Gims (464. Britney supported Femme Fatale with an international tour that ran until the end of 2011; at the end of the year, the home video Live: The Femme Fatale Tour was released. 6 Robot Boy. mp3 ├── Loreena_McKennitt │ ├── An_Ancient_Muse. In 1993, Winter Park Resort’s Competition Center hosted the iconic, inaugural mountain bike race for Colorado. 17 Albums, 187 Songs Linkin Park is an American alternative rock band. Linkin Park adalah grup musik beraliran nu metal dan rock alternatif yang berasal dari Agoura Hills, California, di Amerika Serikat. Rome [Google Drive] Various Artists - Now That's What I Call Music Collection [iTunes Plus AAC M4A] Toàn nhạc hay không, cảm ơn chủ thớt nhiều nhe. mp3 Linkin Park - Faint. bạn nên chọn Link Download 3, là định dạng âm thanh M4A với chất lượng gần 500kbps có dung lượng lớn hơn nhưng nghe hay và chi tiết hơn định dạng MP3 320kbps. Номер по каталогу: 9362491323 Страна исполнителя (группы): USA Аудио кодек: ALAC (*. m4a; Linkin Park - Powerless (Abraham Lincoln Vampire Hunter). Kiiara) 04 - Faint 05 - Talking To Myself 06 - What I've Done 07 - Breaking The Habit 08 - Izzo / In The End 09 - Crawling 10 - Given Up 11 - New Divide 12 - Somewhere I Belong 13 - Burn It Down 14 - A Place For My Head 15 - The Catalyst 16 - Leave Out All The Rest 17 - A Light That Never Comes 18 - Papercut 19. Top Música Latina: Por Primera. analiza www. com/ye2qmdd. numb百度云,最好的mv版本-linkin. 0 % Качество трека 100. info, jego tematy (carly rae jepsen - call me maybe download ulub, linkin park faint chomikuj, linkin park minutes to midnight chomikuj) i głównych konkurentów (twojanuta. m4a Linkin Park - Burn It Down. m4a │ ├─The Catalyst - EP │ 01 The Catalyst. The Video Blender: A Capsule of Memes and Videos 2010s. [Verse 1: Mike Shinoda] Watching the wings cut through the clouds Watching the raindrops blinking red and white Thinking of you When you're older you'll go 'wow, I'm sure glad that my dad is in Linkin Park. In the End (Live at Live 8, Benjamin Franklin Parkway, Philadelphia, 2nd July 2005) - LINKIN PARK 54. Linkin Park - Faint (remix). Print and download in PDF or MIDI In the End. org, skytorrents. Powerless Linkin Park. Linkin Park - In The End (Mellen Gi & Tommee Profitt Remix) WMA, iTunes, M4A,. Super Duper Love (Live at Live 8, Hyde Park, London, 2nd July 2005) - Joss Stone 56. Download Linkin park(m4a Collection 2000-2016) torrent or any other torrent from category. Linkin Park — What. Linkin Park – In the End (Demo) [03:52] 05. 1901 – Phoenix [Google Drive] Various Artists – Now That's What I Call Music Collection [iTunes Plus AAC M4A]. net: March 24, 2020 -- Linkin Park – Waiting For The End (2020) January 3, 2019 -- Linkin Park – This Is Linkin Park (2019) January 23, 2018 -- Linkin Park – Greatest Songs (2018). Considered by various critics as a staple of nu-metal, Linkin Park’s 2000 full-length debut Hybrid Theory seamlessly blends raw hip-hop with an alternative sound, and obtained the Listen to music from Linkin Park like In the End, Numb & more. Bajar mp3 de las mejores canciones de 06 linkin park p5hng me awy mike shinoda feat 2019, exclusivos para ti, puedes escuhar musica online y descargar mp3 sin límites. 5 Mbps Width : 3 840 pixels Height : 2 160 pixels Display aspect ratio : 16:9 Frame rate : 50. m4a 11 Cure for the Itch. Linkin Park Searches for any track with "Linkin Park" in its artist, title, and album fields. bạn nên chọn Link Download 3, là định dạng âm thanh M4A với chất lượng gần 500kbps có dung lượng lớn hơn nhưng nghe hay và chi tiết hơn định dạng MP3 320kbps. In The End By Linkinpark Mp3 Download, In The End (Official Video) - Linkin Park, In The End - Linkin Park, 4. June 16 2018. That is perhaps because Linkin Park spent most effort on this album. "I started getting molested when I was about seven or eight," he said, describing the abuser as. Track Number Track Title Track Length Track Price/Buy Link; 1 Somewhere I Belong. flac Meredith Brooks - Bitch. Artist: Linkin Park Album: A Thousand Suns Live Around the World Released: 2012 Style: Alt Rock Format: M4A 284Kbps Size: 81 Mb. Bajar mp3 de las mejores canciones de Likin Park Faint 2019, exclusivos para ti, puedes escuhar musica online y descargar mp3 sin límites. Linkin Park 08. flac Linkin Park - In the End (Album Version). Disc 2: 01 Shadow Of The Day 02 Bleed It Out 03 What I’ve Done 04. mp3 Linkin Park. Tải nhạc dạng mp3, m4a, lossless và xem lời bài hát Faint hoàn toàn miễn phí. m4a (Gdrive) Download Linkin Park - In the End. American rock band, Type: Group, Founded: 1999 in Agoura Hills, Area: United States. m4a Uploaded 1 year ago: 3. 99 MB, 10 years ago, Linkin Park Music, May 6, 2020, 8:49 pm, mariamachowska. Stream Linkin Park (mellen Gi & tommee profitt remix) audio on your desktop or mobile device. Collection Audio Mp3, M4a, Flac, Wav (Music Orginal) Posted on Desember 11, 2016. One More Light Live is the third live album by Linkin Park. About In the End "In the End" is a song by American rock band Linkin Park. Download Linkin Park - In the End. │ └── Lindsey_Stirling-Transcendence. Cali Swag District - The Kickback (Album) [iTunes Plus AAC M4A] Various Artists - Radio 1's Live Lounge, Vol. The cycle repeated As explosions broke in the sky All that I needed Was the one thing I couldn't find And you were there at the turn Waiting to let me know We're building it up to break it back down We're building it up to burn it down We can't wait to burn it to the ground The colors conflicted As the flames climbed into the clouds I wanted to fix this But couldn't stop from tearing it down. Bajar mp3 de las mejores canciones de Likin Park Faint 2019, exclusivos para ti, puedes escuhar musica online y descargar mp3 sin límites. Linkin Park - Greatest Hits [MP3~320Kbps] The End of Day (2009)(320kbps) Young Thug - No, My Name is JEFFERY (2016) [M4a~iTunes] Temple Of The Dog Deluxe. │ │ 01 Waiting for the End. 34MB ) Enrique Iglesias - I Like It Feat Pitbull. Bangs can be grouped together and combined to get really specific. Listen to Linkin Park (mellen Gi & tommee profitt remix) | Uptona is a platform that you can download and share your music 0 Likes - 355 Plays. In The End Remix mp3 download. Spears made a splashy return to television in 2012 when she signed to be one of the celebrity judges on the second season of the U. This race route is currently the finale for our Epic Singletrack Series, which has built the largest attendance of any cross country series in Colorado over more than two decades. 2; Linkin Park - iTunes Festival: London 2011 - EP. Atlanta, GA based rock band ERIS has released the official music video for their cover of the LINKIN PARK hit single, “Lost in the Echo. mp3 Linkin Park - In The End vs Crawling (slick remix). Te recomendamos que escuches esta musica: In The End Linkin Park támbien puedes Descargar musica mp3 gratis, y si aún no sabes como bajar musica mp3 puedes ver las indicaciones en la parte inferior. Download it. Linkin Park are true artists and musicians and are proving that through every track and album their release. Thanks to Dharmesh, Widya K, Sistina, James Hope, holly, Ari for correcting these lyrics. m4a │ 05 The Catalyst (feat. ” The self-directed music video showcases the band’s high energy, driving live performance, and the single is available to stream / download online now. Descarga Descargar Mp3 Linkin Park. Lost In the Echo 02. Ahora puedes descargar mp3 de In The End gratis y en la más alta calidad 320 kbps, este playlist de musica online contiene 19 resultados de búsqueda que fueron previamente seleccionados para ti, aquí obtendrás las mejores canciones y videos que están de moda en este 2019, podrás bajar musica de In The End en varios formatos de audio como MP3, WMA. Skin to Bone 10. 99 MB, el tiempo de duración es de 3 minutos 38 segundos y gracias al usuario Linkin Park que se tomó el tiempo para subir este archivo de. Kubilay Aka Skodeng Aci Hayat Siçin 5 Haryy Potter Cukur 3 Adaamya Asli Bekiroglu Adnaya Gidek Cigdem Boka Basma Seyh Nazim Vartolu Saadettın Nurseli Aksoy Bahubali2 Turkce Ares özdemir Dna Sarkisi Benim Tatli Afilli Ask. Cure for the Itch. Apollo 440 - Stop The Rock (@440 Original). 320kbps MP3 + 320kbps M4A + 256kbps MP3. 0 % CRC теста 03476CA4 CRC копии 03476CA4 Точное извлечение (достоверность 6) [120431F0]. 1901 – Phoenix [Google Drive] Various Artists – Now That's What I Call Music Collection [iTunes Plus AAC M4A]. In The End Mp3 Download Convert (6. Considered by various critics as a staple of nu-metal, Linkin Park's 2000 full-length debut Hybrid Theory seamlessly blends raw hip-hop with an alternative sound, and obtained the Listen to music from Linkin Park like In the End, Numb & more. m4a │ │ │ └─We Made It - Single │ Busta Rhymes (feat. Jay Z & Linkin Park - Numb Encore (Acapella Radio Edit) Jay Z ft Alicia Keys - Empire State Of Mind (Studio Acapella) Jay Z ft Amil & Memphis Bleek - Hey Papi (Acapella) Jay Z ft Mary J Blige - Can't Knock The Hustle (Acapella) Jay Z ft Mya - Best Of Me (Acapella) Jay Z ft Rihanna & Kanye West - Run This Town (Clean Acapella). Viu algum erro na letra? Envie sua correção. (Pretty Young Thing). M4A 32kbps 1. Think of You [Usher]03. Queen — We Will Rock You 269. The cycle repeated As explosions broke in the sky All that I needed Was the one thing I couldn't find And you were there at the turn Waiting to let me know We're building it up to break it back down We're building it up to burn it down We can't wait to burn it to the ground The colors conflicted As the flames climbed into the clouds I wanted to fix this But couldn't stop from tearing it down. 99 MB, el tiempo de duración es de 3 minutos 38 segundos y gracias al usuario Linkin Park que se tomó el tiempo para subir este archivo de. In The End By Linkinpark Mp3 Download, In The End (Official Video) - Linkin Park, In The End - Linkin Park, 4. SUPER OFFERTA PRE-NATALIZIA IL MEGLIO DELL'IPTV ITALIANA E' TORNATA CON UNA SUPER OFFERTA. 50MB Demi Lovato - Sorry Not Sorry (Official Music Video) _ REACTION__AAC_128k. Linkin Park - Greatest Hits [MP3~320Kbps] M4A HAAC2 Extreme Quality. mp3 Linkin Park - New Divide. m4a NEW ENTRY 57 Lupe Fiasco – The Show Goes On. Download Linkin park(m4a Collection 2000-2016) torrent or any other torrent from category. Watch Linkin Park - In The End (Mellen Gi & Tommee Profitt Remix)_H264_AAC_360p (1) m4a Free Full Movies Online, Like 123Movies, Fmovies, Putlocker, Netflix or Direct Download Torrent Linkin Park - In The End (Mellen Gi & Tommee Profitt Remix)_H264_AAC_360p (1) m4a via Magnet Link. studio百度云资源下载地址为百度网盘公开分享链接,由百度网盘用户小**厨神在2014-07-14 09:13:04分享。 坑搜网提供的 百度网盘搜索 资源服务,全部搜集于百度网盘。. If you have never heard of any of Linkin Park songs you are missing out. One Step Closer 3. Te recomendamos que escuches esta musica: 06 linkin park p5hng me awy mike shinoda feat támbien puedes Descargar musica mp3 gratis, y si aún no sabes como bajar musica mp3 puedes ver las indicaciones en la parte inferior de. تحميل mp3 من أفضل أغاني linkin park 2019, حصريًا لك ، يمكنك الاستماع إلى الموسيقى عبر الإنترنت وتنزيل ملفات mp3 بدون حدود. zip 01 Hands Open (Live at. Pepper's Lonely Hearts Club Band (Take 1 - Instrumental) 16. net: March 24, 2020 -- Linkin Park – Waiting For The End (2020) January 3, 2019 -- Linkin Park – This Is Linkin Park (2019) January 23, 2018 -- Linkin Park – Greatest Songs (2018). Linkin Park – Linkin Park – Waiting For The End [A THOUSAND SUNS]. Itunesmusik. Victimized 08. Avril Lavigne - Don't. The son of a police detective who worked with child sex abuse cases, Bennington had a troubled youth. m4a 14 My December (Bonus Track). Linkin Park Videos Oficiales VOB-HD videos calidad DVD 2 Audios Extraidos de archive by Linkin Park, algos traen doble audios de comentarios de integrantes de la banda ,mas subtitulos en ingles Linkin Park - Breaking The Habit Official Video. Shinoda Remix) 6:20 3 Lost. In the End. Linkin Park موسيقى Download من عند HellsM3a. More Linkin Park available on the site. 46MB Ace of Base - Don't Turn Around (Official Music Video)__AAC_128k (1). Preview, buy and download high-quality music downloads of Hybrid Theory Live Around the World by Linkin Park from 7digital Canada - We have over 30 million high quality tracks in our store. 13 KB) de haute qualité et entièrement gratuite. M4A 32kbps 1. One Step Closer 3. Super Duper Love (Live at Live 8, Hyde Park, London, 2nd July 2005) - Joss Stone 56. Linkin Park - Hit The Floor (2), gp3 Linkin Park - In The End (Reanimation), gp4. Blade Runner 2049 (2017) 1080p 10bit Bluray x265 HEVC [DTH DD 2. Papercut (Live. Linkin Park - Minutes to Midnight - Piano Instrumentals - Avant. Linkin Park Searches for any track with “Linkin Park” in its artist, title, and album fields. Linkin Park Album. m4a 13 My December. m4a (MEGA) If you like this song, please support the artist by buying their original album / music in iTunes Store. In The End (Official Video) - Linkin Park__AAC_128k. BUY Linkin Park – Living Things [Acapellas and Instrumentals] (2012) [0. Bangs can be grouped together and combined to get really specific. Album List Mostrar 01 Chasing Cars (Live In Toronto). 4 KB LPU/2010 - Underground X/cover. 10 Wretches and Kings. Lies Greed Misery 05. mp3 Battle Symphony (Official Lyric Video) - Linkin Park__AAC_128k. Records Inc. Pepper's Lonely Hearts Club Band (Take 9 And Speech) 17. 8 KB Singles/09 - Faint (2003)/cover. Linkin Park adalah grup musik beraliran nu metal dan rock alternatif yang berasal dari Agoura Hills, California, di Amerika Serikat. The Comedy Jam airs Wednesdays at 10/9c on Comedy Central. In The End By Linkinpark Mp3 Download, In The End (Official Video) - Linkin Park, In The End - Linkin Park, 4. Linkin Park. Crawling 6. Linkin Park "Songs From the Underground EP" Reviewed in the United States on. Thanks to Dharmesh, Widya K, Sistina, James Hope, holly, Ari for correcting these lyrics. Nghe online bài hát Krwlng do ca sĩ Linkin Park thể hiện. Also, at the end of Part Of Me, there's a hidden instrumental track that starts playing (meaning that this album has a total of 9 tracks). 46MB Ace of Base - Don't Turn Around (Official Music Video)__AAC_128k (1). Descarga Musica In The End Linkin Park. Album List Mostrar 01 Chasing Cars (Live In Toronto). Battle Symphony. m4a 15 Points of Authority (Crystal. Battle Symphony. Fue creado por el vocalista Chester Be. Linkin Park - In The End (iTunes. Kate Winslet — What If 271. Records Inc. wav Длина предзазора 0:00:02. 99 MB, 10 years ago, Linkin Park Music, May 6, 2020, 8:49 pm, mariamachowska. 1 English] ESubs ~ TombDoc. flac Linkin Park - In the End (Album Version). m4a 14 My December (Bonus Track). Ahora puedes descargar mp3 de Linkin Park In The End Mp3 gratis y en la más alta calidad 320 kbps, este playlist de musica online contiene 19 resultados de búsqueda que fueron previamente seleccionados para ti, aquí obtendrás las mejores canciones y videos que están de moda en este 2019, podrás bajar musica de Linkin Park In The End. mp3 Linkin Park - Live In New York 11. Si lo que deseas es descargar musica mp3 gratis este dato te será de mucha ayuda, la primera canción de este playlist de 18 canciones es Linkin Park - In The End y miles de personas ya lo tienen en su celular, el tamaño de esta musica mp3 es de 4. m4a 92 MB /2008 Road to Revolution - Live At Milton Keynes (Bonus Video Version) -. Te recomendamos que escuches esta musica: 06 linkin park p5hng me awy mike shinoda feat támbien puedes Descargar musica mp3 gratis, y si aún no sabes como bajar musica mp3 puedes ver las indicaciones en la parte inferior de. Roads Untraveled 09. By Myself 8. mp3 Linkin Park - Points of Authority. Linkin Park) - We Made It. │ │ 01 Waiting for the End. m4a 10 Forgotten. 0 % CRC теста 03476CA4 CRC копии 03476CA4 Точное извлечение (достоверность 6) [120431F0]. Buy 'Hybrid Theory by Linkin Park' MP3 download online from 7digital United States - Over 30 million high quality tracks in our store. In The End (Official Video) - Linkin Park__AAC_128k. Waiting for the End (Live) 3. Lay Me Down - The Dirty Heads feat. 2018 Linkin Park - In The End (Mellen Gi & Tommee Profitt Remix) indir, 2018 Linkin Park - In The End (Mellen Gi & Tommee Profitt Remix) Mp3 indir,2018 Linkin Park - In The End (Mellen Gi & Tommee Profitt Remix) mp3 dinle. Burn It Down 04. Lady Antebellum — We Owned the Night 268. Numb (Live at Live 8, Benjamin Franklin Parkway, Philadelphia, 2nd July 2005) - LINKIN PARK & JAY-Z 55. 36 MB) song and listen to In The End Mp3 Download Convert popular song on Miquel Bantulà. Linkin Park - In The End (iTunes Festival Live - London - 2011)( HQ ) MP3 to M4A on Itunes. Also, at the end of Part Of Me, there's a hidden instrumental track that starts playing (meaning that this album has a total of 9 tracks). Mediafire Download Linkin Park – In the End (Demo) [03:52] 05. Cifra Imprimir Corrigir. تحميل mp3 من أفضل أغاني linkin park 2019, حصريًا لك ، يمكنك الاستماع إلى الموسيقى عبر الإنترنت وتنزيل ملفات mp3 بدون حدود. mp3 Linkin Park - In The End (Techno Remix). Preview, buy and download high-quality music downloads of Hybrid Theory Live Around the World by Linkin Park from 7digital Canada - We have over 30 million high quality tracks in our store. 50MB Demi Lovato - Sorry Not Sorry (Official Music Video) _ REACTION__AAC_128k. Finde Live Linkin Park Die deutsche Übersetzung von Good Goodbye und andere Linkin Park Lyrics und Videos findest du kostenlos auf Songtexte. Linkin Park - Soundtrack (Meteora Demo) [03:15] 04. 320kbps MP3 + 320kbps M4A + 256kbps MP3. Read about In The End - Linkin Park [M4A 500kbps] by [unknown] and see the artwork, lyrics and similar artists. Uploaded 12-23 2016, Size 28. Wait a few minutes while we process it. LINKIN PARK – One More Light [iTunes Plus AAC M4A] Genres: Alternative Released: 19 May 2017 ℗ 2017 Warner Bros. m4a 08 In the End. zip 01 Hands Open (Live at. wma; Should I. m4a 05 Crawling. 16-bit FLAC; Release Date: 09/05/2012. Linkin Park 09. m4a │ 02 The Catalyst (_Bobby Bloomfield_. Meteora is the second studio album by American rock band Linkin Park. Musica Linkin Park In The End Mp3 MP3 100% Gratis 2019. m4a 12 Pushing Me Away. wma; Should I. The Catalyst 15. A Place for. m4a 12 Pushing Me Away. Tinfoil 12. Listen to Linkin Park (mellen Gi & tommee profitt remix) | Uptona is a platform that you can download and share your music 0 Likes - 355 Plays. Considered by various critics as a staple of nu-metal, Linkin Park's 2000 full-length debut Hybrid Theory seamlessly blends raw hip-hop with an alternative sound, and obtained the Listen to music from Linkin Park like In the End, Numb & more. wma; Should I. Ici, nous vous fournissons la sonnerie Casa de Papel (765. ** ::Cover:: ** ! ! ** ::General:: Complete name :** **_Linkin Park - iTunes Festival London 2011 M4A NimitMak SilverRG_** ** Format :** **_MPEG-4_** ** Format Linkin. m4a 11 Cure For the Itch. 01 Papercut. It is one of the band's most-recognizable songs. Linkin Park – Robot Boy (Test Mix, Optional Vocal Take) [04:31] 08. In the End (Live) LINKIN PARK: 14: Pushing Me Away (Live) LINKIN PARK: 15: What I’ve Done (Live) A música é o remédio da alma triste. Linkin Park - Broken Foot (Meteora Demo) [02:43. order by bitrate. 米酷音乐论坛讯:A Thousand Suns is the fourth studio album by American rock band Linkin Park. The backdrop for the song is built on layered, heavy synths and a sharp performance by [the. Park torrent,Park种子下载,Park迅雷下载相关结果来源于网络蜘蛛,由用户的指令自动获得,本站不承担任何责任!本站已经使用机器人自动屏蔽了99%的违规链接,同时您可以在详情页面进行举报。. html en alta calidad (HD), lo nuevo de sus canciones, remixes, acusticos, acapelas y los videos que estan de moda este presente 2018, bajar canciones de Linkin Park en los diferentes formatos de audio y video disponibles; MP3, ACC, M4A, MP4. order by bitrate. M4A 32kbps 1. Sharing is Funny. wav Длина предзазора 0:00:02. 3 GiB Duration : 1h 37mn Overall bit rate mode : Variable Overall bit rate : 31. bạn nên chọn Link Download 3, là định dạng âm thanh M4A với chất lượng gần 500kbps có dung lượng lớn hơn nhưng nghe hay và chi tiết hơn định dạng MP3 320kbps. Roads Untraveled 09. In Pieces from the album Minutes to Midnight - the third studio album by American band Linkin Park, released on May 14, 2007, through Warner Bros. 0 % CRC теста 03476CA4 CRC копии 03476CA4 Точное извлечение (достоверность 6) [120431F0]. High-quality Music Downloads. 13 KB) de haute qualité et entièrement gratuite. I think, i have to listen 6,7 times to get into the other Songs, but guys. Bajar mp3 de las mejores canciones de 06 linkin park p5hng me awy mike shinoda feat 2019, exclusivos para ti, puedes escuhar musica online y descargar mp3 sin límites. Press question mark to learn the rest of the keyboard shortcuts. Mike Shinoda first alluded to "New Divide" on March 28, 2009, stating "We've been working on a new song in the past couple of weeks that has been a lot of fun. The Messenger CD06 – Living Things 01. Musica Linkin Park In The End Mp3 MP3 100% Gratis 2019. Well, Talking to myself is LIT! Holy cow. LINKIN PARK BURN IT DOWN LINKIN PARK Waiting For the End 2010 One Step Closer 2001 Somewhere I Belong 2003. Kate Winslet — What If 271. Linkin Park Searches for any track with "Linkin Park" in its artist, title, and album fields. wma; Crosby Stills_ Nash_ and Young - Chicago; 01 I_m Gonna Be _500 Miles_. Considered by various critics as a staple of nu-metal, Linkin Park’s 2000 full-length debut Hybrid Theory seamlessly blends raw hip-hop with an alternative sound, and obtained the Listen to music from Linkin Park like In the End, Numb & more. After a few minutes processing it, you can download your karaoke. 50MB Demi Lovato - Sorry Not Sorry (Official Music Video) _ REACTION__AAC_128k. *** Linkin Park A Thousand Suns Mp3 Download, Linkin Park A Thousand Suns Mp3 Download. Te recomendamos que escuches esta musica: 06 linkin park p5hng me awy mike shinoda feat támbien puedes Descargar musica mp3 gratis, y si aún no sabes como bajar musica mp3 puedes ver las indicaciones en la parte inferior de. 58 MB: 1: 1 year ago: 0: 0: Official Domains: skytorrents. Linkin Park – Bang Three (What I’ve Done Original Demo) [03:29] 07. Powerless Linkin Park. Также слушайте песню на Android, iPhone и iPad. This race route is currently the finale for our Epic Singletrack Series, which has built the largest attendance of any cross country series in Colorado over more than two decades. Papercut (Live. In The End [CDS] - Linkin Park - 76 1mb. 46MB Ace of Base - Don't Turn Around (Official Music Video)__AAC_128k (1). m4a 05 Crawling. Print and download in PDF or MIDI In the End. Considered by various critics as a staple of nu-metal, Linkin Park's 2000 full-length debut Hybrid Theory seamlessly blends raw hip-hop with an alternative sound, and obtained the Listen to music from Linkin Park like In the End, Numb & more. SUPER OFFERTA PRE-NATALIZIA IL MEGLIO DELL'IPTV ITALIANA E' TORNATA CON UNA SUPER OFFERTA. Bajar mp3 de las mejores canciones de 06 linkin park p5hng me awy mike shinoda feat 2019, exclusivos para ti, puedes escuhar musica online y descargar mp3 sin límites. numb百度网盘资源下载地址,小**厨神分享,大小172M,分享时间2014-07-14 09:13:04,分享资源由坑搜网百度云搜索引擎收集整理。. I’ll Be Gone 06. [email protected] Codec ID : 36 Duration : 1h 37mn Bit rate : 29. Linkin Park. mp3 Linkin Park - In the End. org, skytorrents. Ahora puedes descargar mp3 de Linkin Park In The End Mp3 gratis y en la más alta calidad 320 kbps, este playlist de musica online contiene 19 resultados de búsqueda que fueron previamente seleccionados para ti, aquí obtendrás las mejores canciones y videos que están de moda en este 2019, podrás bajar musica de Linkin Park In The End. m4a 06 Runaway. Linkin Park 12. 58 MB: 1: 1 year ago: 0: 0. Tinfoil 12. *** Linkin Park A Thousand Suns Mp3 Download, Linkin Park A Thousand Suns Mp3 Download. Play download. Linkin Park - Greatest Hits [MP3~320Kbps] The End of Day (2009)(320kbps) Young Thug - No, My Name is JEFFERY (2016) [M4a~iTunes] Temple Of The Dog Deluxe. 12 Iridescent. Until It Breaks 11. Linkin Park - One More Light (Live) - 320kbps [Uptobox] Tracklist: 01. With You 4. Linkin Park / Japanese Discography Genre: Alternative Rock / Country: pic / year: 2001-2014 Media: 17’CD | Audio codec: ALAC (*. LINKIN PARK - A Thousand Suns (Deluxe Version) (2010) 297 MB / 256 Kbps / M4A / GOOGLE DRIVE. Upload Sorry for Now by Linkin Park. Download the karaoke version of Sorry for Now by Linkin Park. Linkin Park – Program (Meteora Demo) [03:31] 06. Linkin Park – Eternal Light: The Best of Linkin Park Genre: Rock, Electronic Bitate: FLAC & MP3 320 KBPS. 50MB Elle King - Ex's & Oh's (Official Video)__AAC_128k (7). Linkin Park Searches for any track with "Linkin Park" in its artist, title, and album fields. Castle of Glass 07. numb百度网盘资源下载地址,小**厨神分享,大小172M,分享时间2014-07-14 09:13:04,分享资源由坑搜网百度云搜索引擎收集整理。. mp3 Linkin Park - Faint. 07 I_m Gwine Ober De Mountain. Lies Greed Misery 05. Stay updated via RSS. Lady Antebellum — We Owned the Night 268. 00 KB) de haute qualité et entièrement gratuite. 36 MB) song and listen to In The End Mp3 Download Convert popular song on Miquel Bantulà. *** Linkin Park A Thousand Suns Mp3 Download, Linkin Park A Thousand Suns Mp3 Download. Browse millions of popular linkin park Wallpapers and Ringtones on Zedge and personalize your phone to suit you. Aranan Kelimeler. Linkin Park 12. Download flac jay-z - the hits collection, vol1 2010 lossless cd, m4a 320 kbps: media: cd: size: 557. American rock band, Type: Group, Founded: 1999 in Agoura Hills, Area: United States. Follow this steps: 1. Kate Winslet — What If 271. m4a; Linkin Park - Powerless (Abraham Lincoln Vampire Hunter). Top Música Latina: Por Primera. zip 01 Hands Open (Live at. m4a 05 Crawling. Номер по каталогу: 9362491323 Страна исполнителя (группы): USA Аудио кодек: ALAC (*.